Музыка, клипы, видео Музыкальный жанр, видеоклипы

(Atmospheric Dark Rock / Melancholic Rock / Ethereal Soundscapes) ShamRain - Discography 2003-2007, FLAC (image + .cue), lossless

ShamRain - Discography 2003-2007

Страна: Finland
Жанр: Atmospheric Dark Rock / Melancholic Rock / Ethereal Soundscapes
Формат: FLAC (image + .cue)
Битрейт аудио: lossless
Продолжительность: 02:49:05

Трэклист:
1. Statues
2. Fail
3. Pieces
4. Drifter
5. Withdraw
6. Sound asleep
7. Into distance
8. Funeral
9. Dispensable

Приглашенные музыканты:
Robert Blomerus: cello & piano (3,8), Minna Sihvonen: vocals (6), Marko Porala: flute (3,4,6), Jukka Laalo: acoustic guitar (4,6,8), Daniel Freyberg: guitar (2,3,8) and Jani Heimala: additional keys (2).
Exact Audio Copy V0.99 prebeta 5 from 4. May 2009

EAC extraction logfile from 1. October 2009, 20:03

Unknown Artist / Unknown Title

Used drive : MATSHITAUJDA770 DVD/CDRW Adapter: 0 ID: 1

Read mode : Secure
Utilize accurate stream : Yes
Defeat audio cache : Yes
Make use of C2 pointers : No

Read offset correction : 102
Overread into Lead-In and Lead-Out : No
Fill up missing offset samples with silence : Yes
Delete leading and trailing silent blocks : No
Null samples used in CRC calculations : Yes
Used interface : Native Win32 interface for Win NT & 2000

Used output format : User Defined Encoder
Selected bitrate : 128 kBit/s
Quality : High
Add ID3 tag : Yes
Command line compressor : C:\Program Files\Exact Audio Copy\Flac\flac.exe
Additional command line options : -8 -V %s

TOC of the extracted CD

Track | Start | Length | Start sector | End sector
---------------------------------------------------------
1 | 0:00.00 | 3:45.67 | 0 | 16941
2 | 3:45.67 | 4:23.34 | 16942 | 36700
3 | 8:09.26 | 5:13.71 | 36701 | 60246
4 | 13:23.22 | 6:52.08 | 60247 | 91154
5 | 20:15.30 | 4:34.43 | 91155 | 111747
6 | 24:49.73 | 4:58.28 | 111748 | 134125
7 | 29:48.26 | 7:34.10 | 134126 | 168185
8 | 37:22.36 | 7:14.59 | 168186 | 200794
9 | 44:37.20 | 7:23.04 | 200795 | 234023

Range status and errors

Selected range

Filename I:\!_Lossless_Temp\ShamRain\[2003] Empty World Excursion\Unknown Artist - Unknown Title.wav

Peak level 97.7 %
Range quality 99.9 %
Test CRC 8B714CC4
Copy CRC 8B714CC4
Copy OK

No errors occurred

AccurateRip summary

Track 1 accurately ripped (confidence 1) [CEA7B138]
Track 2 accurately ripped (confidence 1) [5ADAF4D6]
Track 3 accurately ripped (confidence 1) [B114DBE7]
Track 4 accurately ripped (confidence 1) [FC5411A2]
Track 5 accurately ripped (confidence 1) [F4980BE4]
Track 6 accurately ripped (confidence 1) [0429B61C]
Track 7 accurately ripped (confidence 1) [02DE2B48]
Track 8 accurately ripped (confidence 1) [0CA1590A]
Track 9 accurately ripped (confidence 1) [BA71229D]

All tracks accurately ripped

End of status report
1. Into Nothingness
2. Still Aeon
3. To Leave
4. Aura
5. Slow Motions
6. The Missing Pieces
7. A Woeful Song
8. Laren U Freht Ona
9. The Empty Flow

Приглашенные музыканты:
Minna Sihvonen: Angelic vocals, Robert Blomerus: Cello
Exact Audio Copy V0.99 prebeta 5 from 4. May 2009

EAC extraction logfile from 1. October 2009, 21:53

Unknown Artist / Unknown Title

Used drive : MATSHITAUJDA770 DVD/CDRW Adapter: 0 ID: 1

Read mode : Secure
Utilize accurate stream : Yes
Defeat audio cache : Yes
Make use of C2 pointers : No

Read offset correction : 102
Overread into Lead-In and Lead-Out : No
Fill up missing offset samples with silence : Yes
Delete leading and trailing silent blocks : No
Null samples used in CRC calculations : Yes
Used interface : Native Win32 interface for Win NT & 2000

Used output format : User Defined Encoder
Selected bitrate : 128 kBit/s
Quality : High
Add ID3 tag : Yes
Command line compressor : C:\Program Files\Exact Audio Copy\Flac\flac.exe
Additional command line options : -8 -V %s

TOC of the extracted CD

Track | Start | Length | Start sector | End sector
---------------------------------------------------------
1 | 0:00.00 | 3:15.55 | 0 | 14679
2 | 3:15.55 | 3:19.54 | 14680 | 29658
3 | 6:35.34 | 4:29.56 | 29659 | 49889
4 | 11:05.15 | 6:12.07 | 49890 | 77796
5 | 17:17.22 | 4:45.07 | 77797 | 99178
6 | 22:02.29 | 4:52.45 | 99179 | 121123
7 | 26:54.74 | 3:09.61 | 121124 | 135359
8 | 30:04.60 | 6:29.13 | 135360 | 164547
9 | 36:33.73 | 9:59.32 | 164548 | 209504

Range status and errors

Selected range

Filename I:\!_Lossless_Temp\ShamRain\[2005] Someplace Else\Unknown Artist - Unknown Title.wav

Peak level 97.7 %
Range quality 99.9 %
Test CRC 5C778358
Copy CRC 5C778358
Copy OK

No errors occurred
1. Black November
2. The Lost Love Song
3. Baleful Whisper
4. Sound of Snow
5. Aphelion

Приглашенные музыканты:
Minna Sihvonen: Angelic vocals
Exact Audio Copy V0.99 prebeta 5 from 4. May 2009

EAC extraction logfile from 1. October 2009, 21:13

Unknown Artist / Unknown Title

Used drive : MATSHITAUJDA770 DVD/CDRW Adapter: 0 ID: 1

Read mode : Secure
Utilize accurate stream : Yes
Defeat audio cache : Yes
Make use of C2 pointers : No

Read offset correction : 102
Overread into Lead-In and Lead-Out : No
Fill up missing offset samples with silence : Yes
Delete leading and trailing silent blocks : No
Null samples used in CRC calculations : Yes
Used interface : Native Win32 interface for Win NT & 2000

Used output format : User Defined Encoder
Selected bitrate : 128 kBit/s
Quality : High
Add ID3 tag : Yes
Command line compressor : C:\Program Files\Exact Audio Copy\Flac\flac.exe
Additional command line options : -8 -V %s

TOC of the extracted CD

Track | Start | Length | Start sector | End sector
---------------------------------------------------------
1 | 0:00.00 | 3:33.13 | 0 | 15987
2 | 3:33.13 | 4:06.65 | 15988 | 34502
3 | 7:40.03 | 3:40.27 | 34503 | 51029
4 | 11:20.30 | 4:42.37 | 51030 | 72216
5 | 16:02.67 | 4:40.65 | 72217 | 93281

Range status and errors

Selected range

Filename I:\!_Lossless_Temp\ShamRain\[2006] Deeper Into The Night (EP)\Unknown Artist - Unknown Title.wav

Peak level 99.4 %
Range quality 99.9 %
Test CRC 0FC39526
Copy CRC 0FC39526
Copy OK

No errors occurred

AccurateRip summary

Track 1 not present in database
Track 2 not present in database
Track 3 not present in database
Track 4 not present in database
Track 5 not present in database

None of the tracks are present in the AccurateRip database

End of status report
01. Holding The Earth
02. Raindrops
03. Ghosts I See
04. Passing Shadows
05. Shallow Delusion
06. Stars Will Fall
07. Silent Lullaby
08. Evangeline
09. No One Remembers Your Name
10. Goodbyes Painted Black

Приглашенные музыканты: Minna Sihvonen - Vocals on 3 & 8, Teho Majamäki - Vibrafone on 8 & 10, Frank The Inhaler - Percussions on 2 & 6, Tude Usvaala - Double Bass on 10
Exact Audio Copy V0.99 prebeta 5 from 4. May 2009

EAC extraction logfile from 29. September 2009, 21:41

Unknown Artist / Unknown Title

Used drive : MATSHITAUJDA770 DVD/CDRW Adapter: 0 ID: 1

Read mode : Secure
Utilize accurate stream : Yes
Defeat audio cache : Yes
Make use of C2 pointers : No

Read offset correction : 102
Overread into Lead-In and Lead-Out : No
Fill up missing offset samples with silence : Yes
Delete leading and trailing silent blocks : No
Null samples used in CRC calculations : Yes
Used interface : Native Win32 interface for Win NT & 2000

Used output format : User Defined Encoder
Selected bitrate : 128 kBit/s
Quality : High
Add ID3 tag : No
Command line compressor : C:\Program Files\Exact Audio Copy\Flac\flac.exe
Additional command line options : -8 -V %s

TOC of the extracted CD

Track | Start | Length | Start sector | End sector
---------------------------------------------------------
1 | 0:00.00 | 4:02.21 | 0 | 18170
2 | 4:02.21 | 4:30.22 | 18171 | 38442
3 | 8:32.43 | 7:07.72 | 38443 | 70539
4 | 15:40.40 | 3:37.11 | 70540 | 86825
5 | 19:17.51 | 4:15.73 | 86826 | 106023
6 | 23:33.49 | 4:55.14 | 106024 | 128162
7 | 28:28.63 | 3:51.37 | 128163 | 145524
8 | 32:20.25 | 6:08.20 | 145525 | 173144
9 | 38:28.45 | 4:00.40 | 173145 | 191184
10 | 42:29.10 | 7:20.00 | 191185 | 224184

Range status and errors

Selected range

Filename I:\!_Lossless_Temp\ShamRain\[2007] Goodbye To All That\ShamRain - GTAT.wav

Peak level 100.0 %
Range quality 99.9 %
Test CRC DDB0B662
Copy CRC DDB0B662
Copy OK

No errors occurred

AccurateRip summary

Track 1 accurately ripped (confidence 1) [4F755706]
Track 2 accurately ripped (confidence 1) [3249A175]
Track 3 accurately ripped (confidence 1) [A2E050CB]
Track 4 accurately ripped (confidence 1) [FEDD92EF]
Track 5 accurately ripped (confidence 1) [0B23F01F]
Track 6 accurately ripped (confidence 1) [8E0059BC]
Track 7 accurately ripped (confidence 1) [191938E5]
Track 8 accurately ripped (confidence 1) [8B583BA6]
Track 9 accurately ripped (confidence 1) [E0143FE7]
Track 10 accurately ripped (confidence 1) [86BB1E05]

All tracks accurately ripped

End of status report
Pieces (MCD/2002)
Empty World Excursion (2003)
ShamRain (EP/2004)
Someplace Else (2005)
Deeper Into The Night (EP/2006)
Goodbye to All That (2007)

Shamrain also appears on the track 'Charlotte Sometimes' on album "Our Voices - a Tribute to The Cure" (2004)
Источник >>>


RavenSV
RavenSV

Имя:
E-mail (не обязательно):
Используется для уведомления о правильности ответа.